<?xml version="1.0" standalone="no"?>
<!DOCTYPE svg PUBLIC "-//W3C//DTD SVG 1.1//EN" "http://www.w3.org/Graphics/SVG/1.1/DTD/svg11.dtd" >
<svg xmlns="http://www.w3.org/2000/svg">
<metadata>Generated by IcoMoon</metadata>
<defs>
<font id="Woo-Side-Cart" horiz-adv-x="1024">
<font-face units-per-em="1024" ascent="960" descent="-64" />
<missing-glyph horiz-adv-x="1024" />
<glyph unicode="&#x20;" horiz-adv-x="512" d="" />
<glyph unicode="&#xe900;" glyph-name="arrow-long-right" d="M716.8 179.2v179.2h-665.6v204.8h665.6v179.2l268.8-281.6-268.8-281.6z" />
<glyph unicode="&#xe901;" glyph-name="basket5" d="M928 512h-832c-17.696 0-32 14.304-32 32s14.304 32 32 32h64l192 352c0 17.696 14.304 32 32 32h64c17.696 0 32-14.304 32-32l-192-352h448l-192 352c0 17.696 14.304 32 32 32h96c17.696 0 32-14.304 32-32l160-352h64c17.696 0 32-14.304 32-32s-14.304-32-32-32zM96 448h832c17.696 0 32-14.304 32-32l-64-448c0-17.696-14.304-32-32-32h-704c-17.696 0-32 14.304-32 32l-64 448c0 17.696 14.304 32 32 32zM704 64h64c17.696 0 32 14.304 32 32l32 192c0 17.696-14.304 32-32 32h-64c-17.696 0-32-14.304-32-32l-32-192c0-17.696 14.304-32 32-32zM448 96c0-17.696 14.304-32 32-32h64c17.696 0 32 14.304 32 32v192c0 17.696-14.304 32-32 32h-64c-17.696 0-32-14.304-32-32v-192zM224 96c0-17.696 14.304-32 32-32h64c17.696 0 32 14.304 32 32l-32 192c0 17.696-14.304 32-32 32h-64c-17.696 0-32-14.304-32-32l32-192z" />
<glyph unicode="&#xe902;" glyph-name="basket4" d="M942.029 614.4h-256.358l-92.774-92.774c-23.194-23.194-54.067-35.942-86.835-35.942-32.87 0-63.693 12.8-86.938 35.994-23.142 23.142-35.942 53.965-35.994 86.784 0 1.997 0.512 3.942 0.563 5.939h-301.773c-16.998 0-30.72-13.722-30.72-30.72v-122.88h921.6v122.88c0 16.998-13.824 30.72-30.771 30.72zM551.322 563.251l258.816 258.816c12.032 11.981 12.134 31.386 0.102 43.469l-47.104 47.104c-11.981 11.981-31.437 11.93-43.52 0l-258.816-258.867c-24.986-24.986-24.986-65.536 0-90.522 24.986-24.934 65.485-24.986 90.522 0zM195.738 88.525c4.966-20.531 26.368-37.325 47.462-37.325h537.6c21.094 0 42.496 16.794 47.462 37.325l77.978 321.075h-788.48l77.978-321.075z" />
<glyph unicode="&#xe903;" glyph-name="basket6" horiz-adv-x="1170" d="M1097.143 512c40.571 0 73.143-32.571 73.143-73.143s-32.571-73.143-73.143-73.143h-8.571l-65.714-378.286c-6.286-34.857-36.571-60.571-72-60.571h-731.429c-35.429 0-65.714 25.714-72 60.571l-65.714 378.286h-8.571c-40.571 0-73.143 32.571-73.143 73.143s32.571 73.143 73.143 73.143h1024zM277.143 54.857c20 1.714 35.429 19.429 33.714 39.429l-18.286 237.714c-1.714 20-19.429 35.429-39.429 33.714s-35.429-19.429-33.714-39.429l18.286-237.714c1.714-18.857 17.714-33.714 36.571-33.714h2.857zM512 91.428v237.714c0 20-16.571 36.571-36.571 36.571s-36.571-16.571-36.571-36.571v-237.714c0-20 16.571-36.571 36.571-36.571s36.571 16.571 36.571 36.571zM731.429 91.428v237.714c0 20-16.571 36.571-36.571 36.571s-36.571-16.571-36.571-36.571v-237.714c0-20 16.571-36.571 36.571-36.571s36.571 16.571 36.571 36.571zM932.571 88.571l18.286 237.714c1.714 20-13.714 37.714-33.714 39.429s-37.714-13.714-39.429-33.714l-18.286-237.714c-1.714-20 13.714-37.714 33.714-39.429h2.857c18.857 0 34.857 14.857 36.571 33.714zM272 784l-53.143-235.429h-75.429l57.714 252c14.857 66.857 73.714 113.714 142.286 113.714h95.429c0 20 16.571 36.571 36.571 36.571h219.429c20 0 36.571-16.571 36.571-36.571h95.429c68.571 0 127.429-46.857 142.286-113.714l57.714-252h-75.429l-53.143 235.429c-8 33.714-37.143 57.143-71.429 57.143h-95.429c0-20-16.571-36.571-36.571-36.571h-219.429c-20 0-36.571 16.571-36.571 36.571h-95.429c-34.286 0-63.429-23.429-71.429-57.143z" />
<glyph unicode="&#xe904;" glyph-name="basket1" d="M512 212.667c46 0 86 40 86 86s-40 86-86 86-86-40-86-86 40-86 86-86zM384 554.667h256l-128 188zM734 554.667h204c24 0 44-18 44-42-34.625-138.041-73.705-271.628-110-408-10-36-42-62-82-62h-556c-40 0-72 26-82 62l-108 396c-2 4-2 8-2 12 0 24 20 42 44 42h204l186 280c8 12 22 18 36 18s28-6 36-18z" />
<glyph unicode="&#xe905;" glyph-name="basket2" d="M0 512v96h120l240.992 241.024c-1.6 4.768-2.976 9.632-2.976 14.976 0 26.528 21.472 48 48 48 26.496 0 48-21.472 48-48 0-26.496-21.504-48-48-48-3.552 0-6.688 1.312-9.984 2.016l-210.048-210.016h619.328l-208.8 210.528c-4.128-1.152-8.064-2.528-12.512-2.528-26.496 0-48 21.504-48 48 0 26.528 21.504 48 48 48s48-21.472 48-48c0-4.896-1.44-9.376-2.816-13.856l242.144-242.144h120.672v-96h-992zM795.808 35.136c-9.376-37.504-35.36-35.424-35.36-35.424l-531.040-1.024c-27.072 0-34.336 34.304-34.336 34.304l-140.384 446.56 882.368 0.832-141.248-445.248zM319.968 416h-32v-160h32v160zM319.968 224h-32v-160h32v160zM383.968 416h-31.968v-160h31.968v160zM383.968 224h-31.968v-160h31.968v160zM447.968 416h-32v-160h32v160zM447.968 224h-32v-160h32v160zM512 416h-32v-160h32v160zM512 224h-32v-160h32v160zM576 416h-32v-160h32v160zM576 224h-32v-160h32v160zM640 416h-32v-160h32v160zM640 224h-32v-160h32v160zM704 416h-32v-160h32v160zM704 224h-32v-160h32v160z" />
<glyph unicode="&#xe906;" glyph-name="basket3" horiz-adv-x="1344" d="M1264 512h-1184c-4.928 0-9.6-2.272-12.64-6.144s-4.096-8.928-2.912-13.728l128.192-512.544c3.072-10.784 12.512-43.584 47.36-43.584h864c34.976 0 44.32 32.832 47.52 44.128l128 512c1.184 4.768 0.128 9.856-2.912 13.728-3.008 3.872-7.68 6.144-12.608 6.144zM1120.64-11.616c-5.824-20.384-11.84-20.384-16.64-20.384h-864c-4.768 0-10.752 0-16.48 19.872l-123.008 492.128h1143.008l-122.88-491.616zM592 64c8.832 0 16 7.168 16 16v288c0 8.832-7.168 16-16 16s-16-7.168-16-16v-288c0-8.832 7.168-16 16-16zM367.968 64c0.608 0 1.184 0.032 1.824 0.096 8.768 0.992 15.104 8.896 14.112 17.664l-32 288c-0.96 8.8-8.64 15.008-17.696 14.144-8.768-0.992-15.104-8.896-14.112-17.664l32-288c0.896-8.192 7.84-14.24 15.872-14.24zM784 64c8.832 0 16 7.168 16 16v288c0 8.832-7.168 16-16 16s-16-7.168-16-16v-288c0-8.832 7.168-16 16-16zM974.208 64.096c0.64-0.064 1.216-0.096 1.824-0.096 8.032 0 14.976 6.048 15.872 14.24l32 288c0.96 8.768-5.344 16.672-14.112 17.664-9.184 0.896-16.704-5.344-17.696-14.144l-32-288c-0.96-8.768 5.344-16.672 14.112-17.664zM1104 576c3.712 0 7.424 1.28 10.464 3.904 6.688 5.792 7.392 15.872 1.632 22.56l-304 352c-5.792 6.72-15.872 7.392-22.56 1.664-6.688-5.792-7.392-15.872-1.632-22.56l304-352c3.168-3.68 7.616-5.568 12.096-5.568zM570.112 956.384c-6.816 5.536-16.896 4.608-22.496-2.272l-288-352c-5.6-6.816-4.608-16.896 2.24-22.528 2.976-2.4 6.592-3.584 10.144-3.584 4.64 0 9.216 1.984 12.384 5.888l288 352c5.6 6.816 4.576 16.896-2.272 22.496zM1328 640h-128c-8.832 0-16-7.168-16-16s7.168-16 16-16h128c8.832 0 16 7.168 16 16s-7.168 16-16 16zM432 608h512c8.832 0 16 7.168 16 16s-7.168 16-16 16h-512c-8.832 0-16-7.168-16-16s7.168-16 16-16zM16 608h160c8.832 0 16 7.168 16 16s-7.168 16-16 16h-160c-8.832 0-16-7.168-16-16s7.168-16 16-16z" />
<glyph unicode="&#xe907;" glyph-name="trash1" horiz-adv-x="805" d="M292.571 530.286v-329.143c0-10.286-8-18.286-18.286-18.286h-36.571c-10.286 0-18.286 8-18.286 18.286v329.143c0 10.286 8 18.286 18.286 18.286h36.571c10.286 0 18.286-8 18.286-18.286zM438.857 530.286v-329.143c0-10.286-8-18.286-18.286-18.286h-36.571c-10.286 0-18.286 8-18.286 18.286v329.143c0 10.286 8 18.286 18.286 18.286h36.571c10.286 0 18.286-8 18.286-18.286zM585.143 530.286v-329.143c0-10.286-8-18.286-18.286-18.286h-36.571c-10.286 0-18.286 8-18.286 18.286v329.143c0 10.286 8 18.286 18.286 18.286h36.571c10.286 0 18.286-8 18.286-18.286zM658.286 116.571v541.714h-512v-541.714c0-27.429 15.429-43.429 18.286-43.429h475.429c2.857 0 18.286 16 18.286 43.429zM274.286 731.428h256l-27.429 66.857c-1.714 2.286-6.857 5.714-9.714 6.286h-181.143c-3.429-0.571-8-4-9.714-6.286zM804.571 713.143v-36.571c0-10.286-8-18.286-18.286-18.286h-54.857v-541.714c0-62.857-41.143-116.571-91.429-116.571h-475.429c-50.286 0-91.429 51.429-91.429 114.286v544h-54.857c-10.286 0-18.286 8-18.286 18.286v36.571c0 10.286 8 18.286 18.286 18.286h176.571l40 95.429c11.429 28 45.714 50.857 76 50.857h182.857c30.286 0 64.571-22.857 76-50.857l40-95.429h176.571c10.286 0 18.286-8 18.286-18.286z" />
<glyph unicode="&#xe908;" glyph-name="trash" d="M896 725.334h-170.667v42.667c0 72.533-55.467 128-128 128h-170.667c-72.533 0-128-55.467-128-128v-42.667h-170.667c-25.6 0-42.667-17.067-42.667-42.667s17.067-42.667 42.667-42.667h42.667v-554.667c0-72.533 55.467-128 128-128h426.667c72.533 0 128 55.467 128 128v554.667h42.667c25.6 0 42.667 17.067 42.667 42.667s-17.067 42.667-42.667 42.667zM384 768c0 25.6 17.067 42.667 42.667 42.667h170.667c25.6 0 42.667-17.067 42.667-42.667v-42.667h-256v42.667zM768 85.334c0-25.6-17.067-42.667-42.667-42.667h-426.667c-25.6 0-42.667 17.067-42.667 42.667v554.667h512v-554.667z" />
<glyph unicode="&#xe909;" glyph-name="cross" d="M734.618 212.531c-24.013-24.013-62.925-24.013-86.886 0l-135.731 155.136-135.731-155.085c-24.013-24.013-62.925-24.013-86.886 0-24.013 24.013-24.013 62.925 0 86.886l141.21 161.28-141.261 161.382c-24.013 24.013-24.013 62.874 0 86.886s62.874 24.013 86.886 0l135.782-155.187 135.731 155.187c24.013 24.013 62.874 24.013 86.886 0s24.013-62.925 0-86.886l-141.21-161.382 141.21-161.28c24.013-24.013 24.013-62.925 0-86.938z" />
<glyph unicode="&#xe90a;" glyph-name="check_circle" d="M426 212.667l384 384-60 62-324-324-152 152-60-60zM512 852.667c236 0 426-190 426-426s-190-426-426-426-426 190-426 426 190 426 426 426z" />
<glyph unicode="&#xe90b;" glyph-name="pencil" d="M864 960c88.364 0 160-71.634 160-160 0-36.020-11.91-69.258-32-96l-64-64-224 224 64 64c26.742 20.090 59.978 32 96 32zM64 224l-64-288 288 64 592 592-224 224-592-592zM715.578 596.422l-448-448-55.156 55.156 448 448 55.156-55.156z" />
<glyph unicode="&#xe90c;" glyph-name="bag1" d="M921.6 74.837l-58.634 660.26c-1.256 14.658-13.611 25.757-28.061 25.757h-120.618c-1.675 110.148-91.72 199.146-202.287 199.146s-200.612-88.998-202.287-199.146h-120.618c-14.658 0-26.804-11.099-28.061-25.757l-58.634-660.26c0-0.838-0.209-1.675-0.209-2.513 0-75.177 68.895-136.324 153.705-136.324h512.209c84.81 0 153.705 61.147 153.705 136.324 0 0.838 0 1.675-0.209 2.513zM512 903.46c79.365 0 144.072-63.66 145.747-142.606h-291.494c1.675 78.946 66.382 142.606 145.747 142.606zM768.105-7.46h-512.209c-53.189 0-96.327 35.18-97.165 78.528l56.121 633.037h94.652v-85.857c0-15.706 12.564-28.27 28.27-28.27s28.27 12.564 28.27 28.27v85.857h291.704v-85.857c0-15.706 12.564-28.27 28.27-28.27s28.27 12.564 28.27 28.27v85.857h94.652l56.33-633.037c-0.838-43.347-44.185-78.528-97.165-78.528z" />
<glyph unicode="&#xe90d;" glyph-name="arrow-thin-right" d="M828.006 512l-310.835 310.835 72.397 72.397 434.432-434.432-434.432-434.432-72.397 72.397 310.835 310.835h-828.006v102.4z" />
<glyph unicode="&#xe90e;" glyph-name="shopping-bag1" d="M810.667 725.334h-597.333l64 85.333h469.333zM929.877 708.608l-127.744 170.325c-8.363 11.136-21.077 17.024-34.133 17.067h-512c-13.909 0-26.283-6.656-34.133-17.067l-127.744-170.325c-1.835-2.389-3.456-4.992-4.736-7.765-2.773-5.845-4.096-12.075-4.053-18.176v-597.333c0-35.328 14.379-67.413 37.504-90.496s55.168-37.504 90.496-37.504h597.333c35.328 0 67.413 14.379 90.496 37.504s37.504 55.168 37.504 90.496v597.333c0 9.344-3.029 18.005-8.064 24.96-0.171 0.213-0.299 0.427-0.469 0.64zM170.667 640h682.667v-554.667c0-11.776-4.736-22.4-12.501-30.165s-18.389-12.501-30.165-12.501h-597.333c-11.776 0-22.4 4.736-30.165 12.501s-12.501 18.389-12.501 30.165zM640 512c0-35.371-14.293-67.285-37.504-90.496s-55.125-37.504-90.496-37.504-67.285 14.293-90.496 37.504-37.504 55.125-37.504 90.496c0 23.552-19.115 42.667-42.667 42.667s-42.667-19.115-42.667-42.667c0-58.88 23.936-112.299 62.464-150.869s91.989-62.464 150.869-62.464 112.299 23.936 150.869 62.464 62.464 91.989 62.464 150.869c0 23.552-19.115 42.667-42.667 42.667s-42.667-19.115-42.667-42.667z" />
<glyph unicode="&#xe90f;" glyph-name="shopping-cart" d="M469.333 42.667c0 23.552-9.6 44.928-25.003 60.331s-36.779 25.003-60.331 25.003-44.928-9.6-60.331-25.003-25.003-36.779-25.003-60.331 9.6-44.928 25.003-60.331 36.779-25.003 60.331-25.003 44.928 9.6 60.331 25.003 25.003 36.779 25.003 60.331zM938.667 42.667c0 23.552-9.6 44.928-25.003 60.331s-36.779 25.003-60.331 25.003-44.928-9.6-60.331-25.003-25.003-36.779-25.003-60.331 9.6-44.928 25.003-60.331 36.779-25.003 60.331-25.003 44.928 9.6 60.331 25.003 25.003 36.779 25.003 60.331zM308.096 640h621.653l-58.496-306.816c-1.963-9.728-7.083-18.133-14.165-24.235-7.68-6.656-17.621-10.496-29.355-10.283h-415.317c-9.899-0.128-19.243 3.029-26.709 8.661-8.107 6.101-14.037 14.976-16.171 25.728zM42.667 853.334h135.68l36.181-180.864c4.608-18.645 21.419-32.469 41.472-32.469h52.096l-17.067 85.333h-35.029c-23.552 0-42.667-19.115-42.667-42.667 0-2.261 0.171-4.48 0.512-6.613 0.171-1.195 0.427-2.432 0.725-3.584l71.296-356.139c6.357-32.043 24.32-59.008 48.64-77.269 22.229-16.725 49.92-26.155 79.104-25.728h414.123c31.915-0.64 62.080 11.136 85.12 31.019 21.077 18.176 36.181 43.221 42.027 71.808l68.352 358.485c4.395 23.168-10.752 45.483-33.92 49.92-2.773 0.555-5.547 0.811-7.979 0.768h-690.347l-35.84 179.029c-4.011 19.712-21.205 34.304-41.813 34.304h-170.667c-23.552 0-42.667-19.115-42.667-42.667s19.115-42.667 42.667-42.667z" />
<glyph unicode="&#xe910;" glyph-name="bag2" d="M956.108-30.342l-77.828 741.147c-1.633 15.516-14.711 27.297-30.312 27.297h-146.281v33.351c0 103.961-84.586 188.547-188.547 188.547-103.969 0-188.554-84.586-188.554-188.547v-33.351h-146.281c-15.602 0-28.68-11.781-30.312-27.297l-77.828-741.147c-0.898-8.586 1.891-17.156 7.664-23.578 5.781-6.414 14.016-10.078 22.648-10.078h825.311c8.641 0 16.875 3.664 22.648 10.078 5.789 6.422 8.57 14.992 7.672 23.578zM385.539 771.453c0 70.351 57.242 127.593 127.601 127.593 70.351 0 127.593-57.242 127.593-127.593v-33.351h-255.195zM134.321-3.045l71.43 680.194h118.836v-67.164c0-16.828 13.648-30.477 30.477-30.477s30.477 13.648 30.477 30.477v67.164h255.195v-67.164c0-16.828 13.648-30.477 30.477-30.477s30.477 13.648 30.477 30.477v67.164h118.836l71.43-680.194z" />
<glyph unicode="&#xe911;" glyph-name="cart1" d="M326.652 163.515c-59.043 0-106.904-47.863-106.904-106.904 0-59.043 47.863-106.904 106.904-106.904 59.043 0 106.904 47.863 106.904 106.904 0.002 59.040-47.861 106.904-106.904 106.904zM326.652-2.782c-32.801 0-59.39 26.59-59.39 59.39s26.59 59.39 59.39 59.39c32.801 0 59.39-26.59 59.39-59.39 0.002-32.801-26.59-59.39-59.39-59.39zM778.028 163.515c-59.043 0-106.904-47.863-106.904-106.904 0-59.043 47.863-106.904 106.904-106.904s106.904 47.863 106.904 106.904c0 59.040-47.861 106.904-106.904 106.904zM778.028-2.782c-32.801 0-59.39 26.59-59.39 59.39s26.59 59.39 59.39 59.39 59.39-26.59 59.39-59.39c0.002-32.801-26.59-59.39-59.39-59.39zM1019.157 787.124c-4.947 5.404-11.716 8.787-19.005 9.504l-773.276 10.69-21.381 65.331c-15.062 43.673-55.96 73.157-102.154 73.646h-79.584c-13.121 0-23.757-10.636-23.757-23.757s10.636-23.757 23.757-23.757h79.584c25.83-0.571 48.575-17.156 57.017-41.575l150.854-454.939-11.877-27.319c-13.248-34.163-9.269-72.614 10.69-103.341 19.769-30.18 53.027-48.805 89.088-49.889h462.066c13.121 0 23.757 10.636 23.757 23.757s-10.636 23.757-23.757 23.757h-462.069c-20.364 0.509-39.11 11.222-49.889 28.508-10.659 17.075-12.848 38.11-5.939 57.017l9.504 21.381 500.076 52.265c54.93 6.050 100.115 46.001 112.845 99.778l57.017 238.753c2.569 6.875 1.205 14.608-3.567 20.189zM919.381 538.869c-7.712-34.618-37.103-60.152-72.457-62.955l-494.138-51.076-110.469 334.967 728.139-10.69-51.076-210.245z" />
<glyph unicode="&#xe912;" glyph-name="cart2" d="M329.922 297.992h0.047c0.039 0 0.078 0.008 0.117 0.008h543.914c13.391 0 25.164 8.883 28.844 21.758l120 420c2.586 9.055 0.773 18.789-4.891 26.305-5.672 7.516-14.539 11.937-23.953 11.937h-733.265l-21.445 96.508c-3.055 13.727-15.227 23.492-29.289 23.492h-180c-16.57 0-30-13.43-30-30s13.43-30 30-30h155.937c3.797-17.102 102.625-461.836 108.312-487.422-31.883-13.859-54.25-45.648-54.25-82.578 0-49.625 40.375-90 90-90h544c16.57 0 30 13.43 30 30s-13.43 30-30 30h-544c-16.539 0-30 13.461-30 30 0 16.516 13.414 29.953 29.922 29.992zM954.226 718l-102.859-360h-497.304l-80 360zM300 88c0-49.625 40.375-90 90-90s90 40.375 90 90-40.375 90-90 90-90-40.375-90-90zM390 118c16.539 0 30-13.461 30-30s-13.461-30-30-30-30 13.461-30 30 13.461 30 30 30zM724 88c0-49.625 40.375-90 90-90s90 40.375 90 90-40.375 90-90 90-90-40.375-90-90zM814 118c16.539 0 30-13.461 30-30s-13.461-30-30-30-30 13.461-30 30 13.461 30 30 30z" />
<glyph unicode="&#xe913;" glyph-name="del4" d="M768 512v-128h-512v128h512z" />
<glyph unicode="&#xe914;" glyph-name="trash3" horiz-adv-x="805" d="M292.571 530.286v-329.143c0-10.286-8-18.286-18.286-18.286h-36.571c-10.286 0-18.286 8-18.286 18.286v329.143c0 10.286 8 18.286 18.286 18.286h36.571c10.286 0 18.286-8 18.286-18.286zM438.857 530.286v-329.143c0-10.286-8-18.286-18.286-18.286h-36.571c-10.286 0-18.286 8-18.286 18.286v329.143c0 10.286 8 18.286 18.286 18.286h36.571c10.286 0 18.286-8 18.286-18.286zM585.143 530.286v-329.143c0-10.286-8-18.286-18.286-18.286h-36.571c-10.286 0-18.286 8-18.286 18.286v329.143c0 10.286 8 18.286 18.286 18.286h36.571c10.286 0 18.286-8 18.286-18.286zM658.286 116.571v541.714h-512v-541.714c0-27.429 15.429-43.429 18.286-43.429h475.429c2.857 0 18.286 16 18.286 43.429zM274.286 731.428h256l-27.429 66.857c-1.714 2.286-6.857 5.714-9.714 6.286h-181.143c-3.429-0.571-8-4-9.714-6.286zM804.571 713.143v-36.571c0-10.286-8-18.286-18.286-18.286h-54.857v-541.714c0-62.857-41.143-116.571-91.429-116.571h-475.429c-50.286 0-91.429 51.429-91.429 114.286v544h-54.857c-10.286 0-18.286 8-18.286 18.286v36.571c0 10.286 8 18.286 18.286 18.286h176.571l40 95.429c11.429 28 45.714 50.857 76 50.857h182.857c30.286 0 64.571-22.857 76-50.857l40-95.429h176.571c10.286 0 18.286-8 18.286-18.286z" />
<glyph unicode="&#xe915;" glyph-name="del1" d="M512 84.667q140 0 241 101t101 241-101 241-241 101-241-101-101-241 101-241 241-101zM512 852.667q176 0 301-125t125-301-125-301-301-125-301 125-125 301 125 301 301 125zM622 596.667l60-60-110-110 110-110-60-60-110 110-110-110-60 60 110 110-110 110 60 60 110-110z" />
<glyph unicode="&#xe916;" glyph-name="del2" d="M512 84.667q140 0 241 101t101 241-101 241-241 101-241-101-101-241 101-241 241-101zM512 852.667q176 0 301-125t125-301-125-301-301-125-301 125-125 301 125 301 301 125zM298 468.667h428v-84h-428v84z" />
<glyph unicode="&#xe917;" glyph-name="del3" d="M810 384.667h-596v84h596v-84z" />
<glyph unicode="&#xe918;" glyph-name="shopping-bag" d="M1004 146.286l20-178.857c1.143-10.286-2.286-20.571-9.143-28.571-6.857-7.429-17.143-12-27.429-12h-950.857c-10.286 0-20.571 4.571-27.429 12-6.857 8-10.286 18.286-9.143 28.571l20 178.857h984zM950.857 625.714l49.143-442.857h-976l49.143 442.857c2.286 18.286 17.714 32.571 36.571 32.571h146.286v-73.143c0-40.571 32.571-73.143 73.143-73.143s73.143 32.571 73.143 73.143v73.143h219.429v-73.143c0-40.571 32.571-73.143 73.143-73.143s73.143 32.571 73.143 73.143v73.143h146.286c18.857 0 34.286-14.286 36.571-32.571zM731.429 731.428v-146.286c0-20-16.571-36.571-36.571-36.571s-36.571 16.571-36.571 36.571v146.286c0 80.571-65.714 146.286-146.286 146.286s-146.286-65.714-146.286-146.286v-146.286c0-20-16.571-36.571-36.571-36.571s-36.571 16.571-36.571 36.571v146.286c0 121.143 98.286 219.429 219.429 219.429s219.429-98.286 219.429-219.429z" />
<glyph unicode="&#xe919;" glyph-name="chevron-thin-left" d="M711.219 80.998c13.722-13.926 13.722-36.301 0-50.125s-35.891-13.875-49.613 0l-400.896 404.89c-13.722 13.824-13.722 36.198 0 50.125l400.896 404.89c13.722 13.824 35.891 13.824 49.613 0 13.722-13.875 13.722-36.301 0-50.125l-365.619-379.853 365.619-379.802z" />
<glyph unicode="&#xe91a;" glyph-name="chevron-left" d="M637.542 741.581c22.835-22.323 24.627-53.402 0-80.691l-191.846-200.090 191.846-200.090c24.627-27.29 22.835-58.419 0-80.589-22.784-22.323-61.286-20.89-82.688 0-21.402 20.787-230.502 240.384-230.502 240.384-11.418 11.11-17.152 25.702-17.152 40.294s5.734 29.184 17.152 40.397c0 0 209.101 219.494 230.502 240.384 21.402 20.941 59.904 22.323 82.688 0z" />
<glyph unicode="&#xe91b;" glyph-name="arrow-thin-left" d="M195.994 512l310.835 310.835-72.397 72.397-434.432-434.432 434.432-434.432 72.397 72.397-310.835 310.835h828.006v102.4h-828.006z" />
<glyph unicode="&#xe91c;" glyph-name="arrow-left" d="M195.994 512l310.835 310.835-72.397 72.397-434.432-434.432 434.432-434.432 72.397 72.397-310.835 310.835h828.006v102.4h-828.006z" />
<glyph unicode="&#xe91d;" glyph-name="coupon-1" d="M370.17 730.1c2.81-15.008 17.698-26.845 35.261-23.561 17.052 3.56 26.751 19.911 23.561 35.281-3.746 17.872-21.399 27.829-38.123 22.841-14.938-4.458-23.775-19.885-20.699-34.561zM1016.478 311.076c-163.242 475.185-152.012 442.628-152.71 444.246-16.992 39.327-49.977 69.9-90.5 83.882-5.802 2.002-334.383 78.864-343.879 82.152-29.123 10.086-69.584 4.432-97.989-21.693l-281.586-259.105c-31.657-29.117-49.813-70.566-49.813-113.723v-458.833c0-54.071 43.755-98.063 97.539-98.063h602.426c53.783 0 97.539 43.991 97.539 98.063v44.349l167.915 71.862c48.819 21.127 71.53 77.826 51.059 126.861zM699.965 29.943h-602.426c-20.699 0-37.537 17.074-37.537 38.061v458.833c0 26.419 11.092 51.775 30.435 69.566 241.247 221.982 92.131 83.522 282.546 259.125 9.93 9.152 23.641 12.828 37.239 8.728 12.154-3.63-9.292 13.838 296.85-267.857 19.339-17.788 30.431-43.143 30.431-69.562v-458.833c-0.002-20.987-16.84-38.061-37.537-38.061zM941.7 239.33l-144.198-61.712v349.218c0 43.157-18.156 84.606-49.809 113.719l-209.702 192.959 217.012-51.493c23.689-8.574 42.997-26.523 53.253-49.515 162.932-474.279 151.942-442.446 152.656-444.088 8.192-18.937-0.476-40.979-19.213-49.087zM483.931 555.395c-15.274 6.412-32.861-0.78-39.273-16.056l-146.050-348.090c-8.332-19.859 6.386-41.617 27.651-41.617 11.722 0 22.859 6.914 27.679 18.401l146.050 348.090c6.41 15.28-0.778 32.863-16.056 39.273zM343.327 468.947c0 57.902-42.407 105.009-94.535 105.009s-94.533-47.107-94.533-105.009 42.407-105.009 94.535-105.009 94.533 47.107 94.533 105.009zM248.795 423.939c-18.719 0-34.533 20.611-34.533 45.007s15.812 45.007 34.533 45.007 34.533-20.611 34.533-45.007c-0.002-24.397-15.814-45.007-34.533-45.007zM551.517 335.961c-52.127 0-94.535-47.107-94.535-105.009s42.407-105.009 94.535-105.009 94.535 47.107 94.535 105.009-42.409 105.009-94.535 105.009zM551.517 185.945c-18.719 0-34.533 20.611-34.533 45.007s15.812 45.007 34.533 45.007 34.533-20.611 34.533-45.007-15.814-45.007-34.533-45.007z" />
<glyph unicode="&#xe91e;" glyph-name="coupon-2" d="M307.2 396.8h34.133v-34.133h-34.133v34.133zM307.2 328.533h34.133v-34.133h-34.133v34.133zM307.2 260.267h34.133v-34.133h-34.133v34.133zM307.2 465.067h34.133v-34.133h-34.133v34.133zM307.2 533.333h34.133v-34.133h-34.133v34.133zM307.2 601.6h34.133v-34.133h-34.133v34.133zM307.2 669.867h34.133v-34.133h-34.133v34.133zM68.267 669.867h34.133v-34.133h-34.133v34.133zM921.6 669.867h34.133v-34.133h-34.133v34.133zM921.6 260.267h34.133v-34.133h-34.133v34.133zM68.267 260.267h34.133v-34.133h-34.133v34.133zM1006.933 533.333c9.425 0 17.067 7.642 17.067 17.067v170.667c0 9.425-7.642 17.067-17.067 17.067h-989.867c-9.425 0-17.067-7.642-17.067-17.067v-170.667c0-9.425 7.642-17.067 17.067-17.067 47.127 0 85.333-38.206 85.333-85.333s-38.206-85.333-85.333-85.333c-9.425 0-17.067-7.642-17.067-17.067v-170.667c0-9.425 7.642-17.067 17.067-17.067h989.867c9.425 0 17.067 7.642 17.067 17.067v170.667c0 9.425-7.642 17.067-17.067 17.067-47.127 0-85.333 38.206-85.333 85.333s38.206 85.333 85.333 85.333zM888.585 431.027c7.535-52.501 48.783-93.747 101.282-101.282v-137.745h-955.733v137.745c65.31 9.374 110.656 69.916 101.282 135.228-7.535 52.499-48.781 93.747-101.282 101.282v137.745h955.733v-137.745c-65.31-9.374-110.656-69.916-101.282-135.228zM512 618.667c-37.702 0-68.267-30.564-68.267-68.267s30.564-68.267 68.267-68.267c37.702 0 68.267 30.564 68.267 68.267s-30.564 68.267-68.267 68.267zM512 516.267c-18.852 0-34.133 15.281-34.133 34.133s15.281 34.133 34.133 34.133 34.133-15.281 34.133-34.133-15.281-34.133-34.133-34.133zM716.8 413.867c-37.702 0-68.267-30.564-68.267-68.267s30.564-68.267 68.267-68.267c37.702 0 68.267 30.564 68.267 68.267s-30.564 68.267-68.267 68.267zM716.8 311.467c-18.852 0-34.133 15.281-34.133 34.133s15.281 34.133 34.133 34.133 34.133-15.281 34.133-34.133-15.281-34.133-34.133-34.133zM465.8 323.575l273.061 273.061 24.136-24.136-273.061-273.061-24.136 24.136z" />
<glyph unicode="&#xe91f;" glyph-name="coupon-3" d="M574 658c-49.626 0-90-40.374-90-90s40.374-90 90-90 90 40.374 90 90-40.374 90-90 90zM574 538c-16.542 0-30 13.458-30 30s13.458 30 30 30 30-13.458 30-30-13.458-30-30-30zM814 418c-49.626 0-90-40.374-90-90s40.374-90 90-90 90 40.374 90 90-40.374 90-90 90zM814 298c-16.542 0-30 13.458-30 30s13.458 30 30 30 30-13.458 30-30-13.458-30-30-30zM830.64 652.962c-13.782 9.188-32.412 5.464-41.602-8.322l-240-360c-9.19-13.784-5.464-32.41 8.322-41.602 13.784-9.188 32.41-5.466 41.602 8.322l240 360c9.19 13.786 5.464 32.412-8.322 41.602zM994 778h-964c-16.568 0-30-13.432-30-30v-180c0-16.568 13.432-30 30-30 49.626 0 90-40.374 90-90s-40.374-90-90-90c-16.568 0-30-13.432-30-30v-180c0-16.568 13.432-30 30-30h964c16.568 0 30 13.432 30 30v600c0 16.568-13.432 30-30 30zM964 178h-664v30c0 16.568-13.432 30-30 30s-30-13.432-30-30v-30h-180v123.012c68.382 13.938 120 74.55 120 146.988s-51.618 133.048-120 146.986v123.014h182.5v-30c0-16.568 13.432-30 30-30s30 13.432 30 30v30h661.5v-540zM270 418c-16.568 0-30-13.432-30-30v-60c0-16.568 13.432-30 30-30s30 13.432 30 30v60c0 16.568-13.432 30-30 30zM270 598c-16.568 0-30-13.432-30-30v-60c0-16.568 13.432-30 30-30s30 13.432 30 30v60c0 16.568-13.432 30-30 30z" />
<glyph unicode="&#xe920;" glyph-name="coupon-5" d="M934.54 601.506c33.419 74.837 19.469 165.689-41.939 227.097s-152.258 75.354-227.097 41.939l-89.458 89.458-576.046-576.046 89.46-89.46c-33.419-74.837-19.469-165.689 41.939-227.097s152.258-75.354 227.097-41.939l89.46-89.46 576.046 576.044-89.462 89.464zM394.224 394.284c-27.899-27.899-73.134-27.899-101.033 0s-27.899 73.134 0 101.033c27.899 27.899 73.134 27.899 101.033 0 27.901-27.899 27.901-73.134 0-101.033zM504.166 206.659l-50.74 475.599 66.405 7.085 50.74-475.601-66.405-7.083zM731.212 400.28c-27.899-27.899-73.134-27.899-101.033 0s-27.899 73.134 0 101.033c27.899 27.899 73.134 27.899 101.033 0s27.899-73.134 0-101.033z" />
<glyph unicode="&#xe921;" glyph-name="coupon-6" d="M0 736.38v-193.244l33.104 1.86c2.074 0.118 3.902 0.174 5.59 0.174 53.58 0 97.17-43.588 97.17-97.17s-43.588-97.17-97.17-97.17c-1.658 0-3.494 0.056-5.618 0.176l-33.076 1.832v-193.216h1024v576.758h-1024zM372.184 258.4h-62.694v42.574h62.694v-42.574zM372.184 343.548h-62.694v42.574h62.694v-42.574zM372.184 428.694h-62.694v42.574h62.694v-42.574zM372.184 513.842h-62.694v42.574h62.694v-42.574zM372.184 598.988h-62.694v42.574h62.694v-42.574zM820.054 262.182l-125.15 65.794-125.148-65.796 23.904 139.358-101.248 98.69 139.92 20.332 62.572 126.788 62.574-126.788 139.918-20.332-101.246-98.69 23.904-139.356z" />
<glyph unicode="&#xe922;" glyph-name="coupon" d="M768 320c0-17.673-14.327-32-32-32s-32 14.327-32 32c0 17.673 14.327 32 32 32s32-14.327 32-32zM576 576c0-17.673-14.327-32-32-32s-32 14.327-32 32c0 17.673 14.327 32 32 32s32-14.327 32-32zM960 800h-608c-8.512 0-16.64-3.392-22.656-9.344l-41.344-41.408-41.344 41.408c-6.016 5.952-14.144 9.344-22.656 9.344h-160c-35.264 0-64-28.736-64-64v-576c0-35.328 28.736-64 64-64h160c8.512 0 16.64 3.392 22.656 9.344l41.344 41.408 41.344-41.344c6.016-6.016 14.144-9.408 22.656-9.408h608c35.328 0 64 28.672 64 64v576c0 35.264-28.672 64-64 64zM320 224h-64v64h64v-64zM320 352h-64v64h64v-64zM320 480h-64v64h64v-64zM320 608h-64v64h64v-64zM544 672c52.928 0 96-43.072 96-96s-43.072-96-96-96-96 43.072-96 96 43.072 96 96 96zM480 224c-7.232 0-14.464 2.432-20.48 7.424-13.568 11.328-15.424 31.488-4.096 45.056l320 384c11.392 13.632 31.552 15.296 45.056 4.096 13.568-11.328 15.36-31.488 4.032-45.12l-320-384c-6.272-7.488-15.36-11.456-24.512-11.456zM736 224c-52.928 0-96 43.072-96 96s43.072 96 96 96 96-43.072 96-96-43.072-96-96-96z" />
<glyph unicode="&#xe923;" glyph-name="coupon-4" d="M894.294 558.934h-78.506c-9.42 0-17.066-7.646-17.066-17.066s7.646-17.066 17.066-17.066h78.506c9.42 0 17.066 7.646 17.066 17.066s-7.646 17.066-17.066 17.066zM737.28 558.934h-78.506c-9.42 0-17.066-7.646-17.066-17.066s7.646-17.066 17.066-17.066h78.506c9.42 0 17.066 7.646 17.066 17.066s-7.646 17.066-17.066 17.066zM1006.934 558.934h-34.134c-9.42 0-17.066-7.646-17.066-17.066s7.646-17.066 17.066-17.066h17.066v-17.066c0-9.42 7.646-17.066 17.066-17.066s17.066 7.646 17.066 17.066v34.134c0.002 9.418-7.644 17.064-17.064 17.064zM1006.934 341.948c-9.42 0-17.066-7.646-17.066-17.066v-60.946c0-9.42 7.646-17.066 17.066-17.066s17.066 7.646 17.066 17.066v60.946c0 9.42-7.646 17.066-17.066 17.066zM1006.934 463.854c-9.42 0-17.066-7.646-17.066-17.066v-60.946c0-9.42 7.646-17.066 17.066-17.066s17.066 7.646 17.066 17.066v60.946c0 9.422-7.646 17.066-17.066 17.066zM1006.934 220.040c-9.42 0-17.066-7.646-17.066-17.066v-60.946c0-9.42 7.646-17.066 17.066-17.066s17.066 7.646 17.066 17.066v60.946c0 9.42-7.646 17.066-17.066 17.066zM1006.934 98.134c-9.42 0-17.066-7.646-17.066-17.066v-17.068h-17.068c-9.42 0-17.066-7.646-17.066-17.066s7.646-17.066 17.066-17.066h34.134c9.42 0 17.066 7.646 17.066 17.066v34.134c0 9.42-7.646 17.066-17.066 17.066zM334.762 64h-70.894c-9.42 0-17.066-7.646-17.066-17.066s7.646-17.066 17.066-17.066h70.894c9.42 0 17.066 7.646 17.066 17.066s-7.644 17.066-17.066 17.066zM192.99 64h-70.896c-9.42 0-17.066-7.646-17.066-17.066s7.646-17.066 17.066-17.066h70.894c9.42 0 17.066 7.646 17.066 17.066s-7.644 17.066-17.064 17.066zM476.552 64h-70.896c-9.42 0-17.066-7.646-17.066-17.066s7.646-17.066 17.066-17.066h70.896c9.42 0 17.066 7.646 17.066 17.066s-7.628 17.066-17.066 17.066zM618.342 64h-70.894c-9.42 0-17.066-7.646-17.066-17.066s7.646-17.066 17.066-17.066h70.894c9.42 0 17.066 7.646 17.066 17.066s-7.644 17.066-17.066 17.066zM901.906 64h-70.894c-9.42 0-17.066-7.646-17.066-17.066s7.646-17.066 17.066-17.066h70.894c9.42 0 17.066 7.646 17.066 17.066s-7.646 17.066-17.066 17.066zM760.132 64h-70.894c-9.42 0-17.066-7.646-17.066-17.066s7.646-17.066 17.066-17.066h70.894c9.42 0 17.066 7.646 17.066 17.066s-7.644 17.066-17.066 17.066zM51.2 64h-17.066v17.066c0 9.42-7.646 17.066-17.066 17.066s-17.068-7.644-17.068-17.066v-34.134c0-9.42 7.646-17.066 17.066-17.066h34.134c9.42 0 17.066 7.646 17.066 17.066s-7.646 17.068-17.066 17.068zM17.066 341.93c-9.42 0-17.066-7.646-17.066-17.066v-60.946c0-9.42 7.646-17.066 17.066-17.066s17.066 7.646 17.066 17.066v60.946c0.002 9.42-7.644 17.066-17.066 17.066zM17.066 463.838c-9.42 0-17.066-7.646-17.066-17.066v-60.946c0-9.42 7.646-17.066 17.066-17.066s17.066 7.646 17.066 17.066v60.946c0.002 9.42-7.644 17.066-17.066 17.066zM17.066 220.024c-9.42 0-17.066-7.646-17.066-17.066v-60.946c0-9.42 7.646-17.066 17.066-17.066s17.066 7.646 17.066 17.066v60.946c0.002 9.42-7.644 17.066-17.066 17.066zM51.2 558.934h-34.134c-9.42 0-17.066-7.646-17.066-17.066v-34.134c0-9.42 7.646-17.066 17.066-17.066s17.066 7.646 17.066 17.066v17.066h17.068c9.42 0 17.066 7.646 17.066 17.066s-7.646 17.068-17.066 17.068zM199.116 558.934h-73.966c-9.42 0-17.066-7.646-17.066-17.066s7.646-17.066 17.066-17.066h73.966c9.42 0 17.066 7.646 17.066 17.066s-7.644 17.066-17.066 17.066zM880.316 316.826l-293.222 209.442c6.024 2.646 10.24 8.618 10.24 15.598 0 9.42-7.646 17.066-17.066 17.066h-34.134c-1.314 0-2.492-0.46-3.72-0.75l-2.15 1.536 340.020 241.306c6.058 4.3 8.636 12.032 6.382 19.098s-8.842 11.878-16.266 11.878h-153.6c-3.516 0-6.946-1.076-9.83-3.106l-280.064-197.086-74.12 59.29c3.602 12.22 5.614 25.122 5.614 38.502 0 75.282-61.252 136.534-136.534 136.534s-136.534-61.252-136.534-136.534c0-75.282 61.252-136.534 136.534-136.534 8.67 0 17.118 0.904 25.326 2.458l0.018-0.018 61.44-36.864c-0.512 0.034-0.938 0.29-1.45 0.29h-34.134c-9.42 0-17.066-7.646-17.066-17.066s7.646-17.066 17.066-17.066h1.776l-27.716-19.508c-8.192 1.536-16.622 2.44-25.258 2.44-75.282 0-136.534-61.252-136.534-136.534s61.252-136.534 136.534-136.534c75.282 0 136.534 61.252 136.534 136.534 0 18.654-3.788 36.438-10.582 52.668 1.16 0.478 2.338 0.938 3.396 1.69l80.93 57.43 274.824-193.996c2.868-2.032 6.298-3.124 9.83-3.124h153.6c7.424 0 13.994 4.796 16.248 11.862 2.27 7.066-0.29 14.78-6.332 19.098zM221.866 661.334c-37.65 0-68.266 30.618-68.266 68.266 0 37.65 30.618 68.266 68.266 68.266s68.266-30.618 68.266-68.266c0.002-37.65-30.616-68.266-68.266-68.266zM221.866 302.934c-37.65 0-68.266 30.618-68.266 68.266 0 37.65 30.618 68.266 68.266 68.266s68.266-30.618 68.266-68.266c0.002-37.65-30.616-68.266-68.266-68.266zM426.838 541.866c-9.42 0-17.152 7.646-17.152 17.066s7.56 17.066 16.982 17.066h0.17c9.42 0 17.066-7.646 17.066-17.066s-7.646-17.066-17.066-17.066z" />
<glyph unicode="&#xe924;" glyph-name="discout" d="M993.984 448c0-68-39.264-125.664-97.6-148.544v-74.56c0-17.6-14.272-31.872-31.84-31.872h-737.056c-17.632 0-31.872 14.272-31.872 31.872v74.56c-58.368 22.88-97.6 80.544-97.6 148.544s39.264 125.664 97.632 148.544v74.56c0 17.632 14.24 31.872 31.872 31.872h737.056c17.568 0 31.84-14.24 31.84-31.872v-74.56c58.336-22.88 97.568-80.544 97.568-148.544zM382.464 448h-127.488v-31.872h127.488v31.872zM533.824 556.672c-8.992 9.888-21.344 14.816-37.024 14.816-15.584 0-27.872-4.928-36.832-14.816-8.992-9.856-13.504-25.024-13.504-45.504 0-20.576 4.512-35.776 13.504-45.664 8.96-9.856 15.392-14.784 31.328-14.784 15.36 0 33.568 4.928 42.56 14.784 8.96 9.888 13.472 25.088 13.472 45.664-0.032 20.48-4.544 35.68-13.504 45.504zM642.24 576.48l-163.52-256.704h32.384l162.72 256.704h-31.584zM693.152 429.216c-8.96 9.856-21.344 14.784-37.024 14.784-15.552 0-27.872-4.928-36.864-14.784-8.96-9.888-13.44-25.024-13.44-45.504 0-20.576 4.48-35.808 13.44-45.664 8.992-9.888 21.44-14.816 37.376-14.816 15.36 0 27.552 4.928 36.544 14.816 8.96 9.856 13.472 25.088 13.472 45.664-0.032 20.48-4.544 35.616-13.504 45.504zM655.84 347.904c-4.608 0-8.192 1.952-10.784 5.792-3.424 5.024-5.152 15.008-5.152 29.952s1.728 24.96 5.152 30.080c2.496 3.744 6.080 5.664 10.784 5.664s8.352-1.92 10.944-5.664c3.328-5.12 4.992-15.168 4.992-30.080s-1.728-24.96-5.152-30.080c-2.496-3.776-6.080-5.664-10.784-5.664zM496.512 475.36c-4.608 0-8.192 1.952-10.784 5.824-3.424 5.024-5.152 15.008-5.152 29.952s1.728 24.96 5.152 30.080c2.496 3.744 6.080 5.632 10.784 5.632s8.32-1.888 10.944-5.632c3.328-5.12 4.992-15.168 4.992-30.080s-1.728-24.96-5.152-30.080c-2.528-3.776-6.112-5.696-10.784-5.696z" />
<glyph unicode="&#xe925;" glyph-name="coupon-7" d="M787.83 612.892l-97.338 84.36c50.056 126.462-43.794 262.748-178.492 262.748-134.89 0-228.464-136.502-178.492-262.748l-97.338-84.36c-28.072-24.326-44.17-59.582-44.17-96.728v-484.164c0-52.934 43.066-96 96-96h448c52.934 0 96 43.066 96 96v484.164c0 37.144-16.1 72.4-44.17 96.728zM512 896c80.524 0 141.182-73.772 125.564-152.878l-20.334 17.622c-60.428 52.374-150.138 52.282-210.462 0l-20.332-17.622c-15.596 78.998 44.94 152.878 125.564 152.878zM768 32c0-17.644-14.356-32-32-32h-448c-17.644 0-32 14.356-32 32v484.164c0 18.572 8.050 36.2 22.084 48.364l89.206 77.312c29.11-33.312 69.016-55.716 112.708-63.14v-2.7c0-17.672 14.328-32 32-32 17.674 0 32 14.328 32 32v64c0 17.672-14.326 32-32 32-16.304 0-29.732-12.204-31.718-27.97-24.966 6.418-47.562 20.262-64.626 39.724l33.030 28.626c36.362 31.512 90.338 31.456 126.632 0 33.47-29.008 117.562-101.888 170.598-147.854 14.038-12.164 22.086-29.792 22.086-48.364zM643.646 441.26c-13.948 10.848-34.054 8.336-44.906-5.614l-224-288c-16.454-21.158-1.042-51.648 25.238-51.648 9.536 0 18.974 4.246 25.282 12.356l224 288c10.85 13.95 8.336 34.056-5.614 44.906zM688 160c0-35.346-28.654-64-64-64s-64 28.654-64 64c0 35.346 28.654 64 64 64s64-28.654 64-64zM464 384c0-35.346-28.654-64-64-64s-64 28.654-64 64c0 35.346 28.654 64 64 64s64-28.654 64-64z" />
<glyph unicode="&#xe926;" glyph-name="coupon-8" d="M955.91 434.737c-4.12 8.43-4.12 18.098 0 26.526l38.192 78.13c21.264 43.502 4.416 95.351-38.356 118.045l-76.82 40.76c-8.288 4.396-13.97 12.22-15.592 21.458l-15.024 85.657c-8.366 47.692-52.482 79.74-100.415 72.958l-86.105-12.18c-9.294-1.312-18.484 1.676-25.226 8.198l-62.502 60.464c-34.802 33.668-89.321 33.67-124.121 0l-62.504-60.47c-6.744-6.524-15.934-9.506-25.226-8.198l-86.105 12.18c-47.95 6.786-92.049-25.266-100.415-72.958l-15.024-85.653c-1.622-9.24-7.304-17.062-15.59-21.46l-76.82-40.76c-42.772-22.692-59.62-74.546-38.356-118.047l38.19-78.128c4.12-8.43 4.12-18.098 0-26.526l-38.192-78.128c-21.264-43.502-4.416-95.351 38.356-118.045l76.82-40.76c8.288-4.396 13.97-12.22 15.592-21.458l15.024-85.657c7.616-43.416 44.844-73.864 87.629-73.86 4.214 0 8.49 0.296 12.788 0.904l86.105 12.18c9.286 1.318 18.482-1.676 25.226-8.198l62.502-60.464c17.404-16.836 39.728-25.252 62.060-25.25 22.326 0.002 44.664 8.418 62.060 25.25l62.504 60.464c6.744 6.522 15.936 9.502 25.226 8.198l86.105-12.18c47.956-6.784 92.049 25.266 100.415 72.958l15.026 85.653c1.622 9.24 7.304 17.062 15.59 21.46l76.82 40.76c42.772 22.692 59.62 74.546 38.356 118.047l-38.192 78.13zM928.065 290.734l-76.82-40.76c-24.492-12.998-41.29-36.114-46.080-63.426l-15.024-85.655c-2.83-16.136-17.748-26.974-33.974-24.684l-86.105 12.18c-27.46 3.89-54.632-4.948-74.562-24.226l-62.504-60.462c-11.772-11.388-30.218-11.388-41.994 0l-62.502 60.464c-16.844 16.294-38.864 25.124-61.852 25.124-4.212 0-8.458-0.296-12.71-0.898l-86.105-12.18c-16.212-2.292-31.142 8.548-33.974 24.684l-15.026 85.657c-4.792 27.312-21.588 50.43-46.082 63.424l-76.82 40.76c-14.472 7.678-20.172 25.22-12.978 39.938l38.192 78.13c12.176 24.912 12.176 53.484 0 78.396l-38.192 78.13c-7.194 14.718-1.494 32.26 12.978 39.938l76.82 40.76c24.492 12.998 41.29 36.114 46.080 63.426l15.024 85.655c2.832 16.136 17.748 26.976 33.974 24.684l86.105-12.18c27.45-3.886 54.632 4.948 74.562 24.226l62.504 60.464c11.772 11.388 30.218 11.388 41.994 0l62.502-60.464c19.93-19.28 47.108-28.112 74.562-24.226l86.105 12.18c16.214 2.294 31.144-8.548 33.974-24.684l15.024-85.657c4.792-27.312 21.588-50.43 46.082-63.424l76.82-40.76c14.472-7.678 20.172-25.22 12.978-39.938l-38.192-78.128c-12.176-24.91-12.176-53.486 0-78.396l38.192-78.128c7.196-14.722 1.496-32.266-12.976-39.944zM727.768 663.77c-11.53 11.532-30.23 11.532-41.762 0l-389.776-389.778c-11.532-11.532-11.532-30.23 0-41.762 5.766-5.766 13.324-8.65 20.88-8.65s15.116 2.882 20.88 8.65l389.776 389.776c11.536 11.534 11.536 30.23 0.002 41.764zM393.88 713.769c-59.704 0-108.277-48.574-108.277-108.277s48.574-108.277 108.277-108.277 108.277 48.574 108.277 108.277-48.574 108.277-108.277 108.277zM393.88 556.276c-27.138 0-49.216 22.078-49.216 49.218 0 27.138 22.078 49.216 49.216 49.216s49.218-22.078 49.218-49.216c-0.002-27.14-22.080-49.218-49.218-49.218zM630.118 398.783c-59.704 0-108.277-48.574-108.277-108.277s48.574-108.277 108.277-108.277c59.704 0 108.277 48.574 108.277 108.277s-48.574 108.277-108.277 108.277zM630.118 241.29c-27.138 0-49.218 22.078-49.218 49.216s22.078 49.216 49.218 49.216c27.138 0 49.216-22.078 49.216-49.216s-22.078-49.216-49.216-49.216z" />
<glyph unicode="&#xe927;" glyph-name="coupon-9" d="M1024 448c0 14.106-6.418 27.122-17.61 35.708l-32.682 25.078 25.078 32.682c8.588 11.19 11.418 25.424 7.768 39.050-3.652 13.626-13.22 24.536-26.252 29.932l-38.058 15.764 15.764 38.058c5.398 13.032 4.45 27.514-2.604 39.73s-19.12 20.278-33.106 22.12l-40.838 5.376 5.376 40.842c1.842 13.984-2.822 27.726-12.796 37.7s-23.718 14.638-37.702 12.798l-40.842-5.376-5.376 40.84c-1.842 13.986-9.904 26.052-22.122 33.106-12.214 7.052-26.696 8-39.726 2.602l-38.058-15.764-15.764 38.058c-5.398 13.032-16.31 22.6-29.936 26.25-13.624 3.652-27.856 0.82-39.046-7.768l-32.682-25.078-25.076 32.68c-8.588 11.194-21.604 17.612-35.71 17.612s-27.122-6.418-35.708-17.61l-25.076-32.68-32.68 25.076c-11.19 8.588-25.422 11.42-39.048 7.768-13.626-3.65-24.536-13.218-29.936-26.25l-15.764-38.058-38.058 15.764c-13.034 5.4-27.516 4.45-39.73-2.604-12.216-7.052-20.278-19.12-22.12-33.104l-5.376-40.842-40.84 5.378c-13.984 1.84-27.728-2.824-37.702-12.798s-14.638-23.716-12.796-37.702l5.376-40.84-40.84-5.376c-13.986-1.84-26.050-9.904-33.104-22.12-7.052-12.216-8.002-26.696-2.604-39.73l15.764-38.058-38.058-15.764c-13.032-5.398-22.6-16.308-26.25-29.932-3.652-13.626-0.82-27.86 7.766-39.050l25.078-32.682-32.68-25.076c-11.196-8.588-17.614-21.604-17.614-35.71s6.418-27.122 17.61-35.71l32.68-25.076-25.078-32.682c-8.586-11.19-11.418-25.424-7.766-39.050 3.65-13.626 13.218-24.536 26.25-29.932l38.058-15.764-15.764-38.058c-5.398-13.032-4.45-27.512 2.604-39.728s19.12-20.278 33.104-22.12l40.842-5.376-5.378-40.84c-1.84-13.986 2.824-27.728 12.798-37.702s23.716-14.634 37.702-12.798l40.84 5.376 5.376-40.84c1.842-13.986 9.904-26.052 22.122-33.106 12.216-7.052 26.698-8 39.728-2.604l38.058 15.764 15.764-38.056c5.398-13.032 16.308-22.6 29.932-26.25 13.624-3.652 27.858-0.82 39.050 7.766l32.682 25.078 25.076-32.68c8.588-11.194 21.604-17.612 35.71-17.612s27.122 6.418 35.708 17.61l25.078 32.68 32.68-25.078c11.19-8.586 25.42-11.418 39.050-7.766 13.626 3.65 24.536 13.218 29.932 26.25l15.764 38.058 38.058-15.764c13.034-5.398 27.514-4.45 39.726 2.602 12.216 7.052 20.28 19.12 22.122 33.106l5.376 40.84 40.842-5.376c13.982-1.834 27.726 2.824 37.704 12.798 9.972 9.974 14.636 23.716 12.794 37.702l-5.376 40.84 40.842 5.376c13.984 1.842 26.048 9.904 33.102 22.12s8.002 26.696 2.604 39.73l-15.764 38.056 38.058 15.764c13.032 5.398 22.6 16.308 26.252 29.932 3.65 13.626 0.82 27.86-7.768 39.050l-25.078 32.682 32.682 25.076c11.194 8.59 17.612 21.606 17.612 35.712zM988.128 436.092l-44.582-34.208c-3.156-2.422-5.22-5.998-5.74-9.942s0.548-7.934 2.97-11.090l34.208-44.582c2.864-3.732 3.808-8.478 2.59-13.022-1.216-4.544-4.408-8.182-8.754-9.982l-51.916-21.504c-7.654-3.17-11.29-11.946-8.118-19.598l21.504-51.916c1.798-4.346 1.482-9.176-0.87-13.25s-6.376-6.762-11.038-7.376l-55.714-7.334c-8.212-1.082-13.994-8.616-12.912-16.83l7.334-55.712c0.614-4.664-0.942-9.246-4.268-12.572s-7.898-4.886-12.574-4.268l-55.712 7.334c-3.938 0.516-7.932-0.55-11.088-2.972s-5.22-5.998-5.74-9.942l-7.334-55.712c-0.616-4.664-3.302-8.688-7.376-11.040-4.072-2.35-8.904-2.668-13.248-0.868l-51.916 21.504c-7.654 3.17-16.428-0.466-19.598-8.118l-21.504-51.916c-1.8-4.346-5.44-7.536-9.982-8.754-4.54-1.218-9.29-0.276-13.024 2.59l-44.58 34.208c-3.154 2.42-7.14 3.488-11.088 2.972-3.946-0.52-7.522-2.584-9.944-5.74l-34.208-44.582c-2.862-3.73-7.2-5.87-11.906-5.87s-9.044 2.14-11.908 5.872c0 0-34.208 44.582-34.208 44.582-2.422 3.156-5.998 5.22-9.942 5.74-0.654 0.086-1.306 0.128-1.958 0.128-3.284 0-6.498-1.080-9.132-3.1l-44.582-34.208c-3.732-2.864-8.48-3.81-13.022-2.59-4.544 1.216-8.182 4.408-9.982 8.754l-21.504 51.916c-3.17 7.654-11.948 11.29-19.598 8.118l-51.916-21.504c-4.346-1.798-9.176-1.484-13.248 0.868-4.074 2.352-6.762 6.376-7.376 11.040l-7.334 55.712c-0.52 3.944-2.584 7.52-5.74 9.942-3.156 2.42-7.144 3.492-11.090 2.972l-55.712-7.334c-4.654-0.62-9.246 0.94-12.572 4.268-3.326 3.326-4.882 7.908-4.268 12.572l7.334 55.712c1.082 8.214-4.702 15.748-12.914 16.83l-55.712 7.334c-4.664 0.614-8.688 3.302-11.040 7.376s-2.668 8.902-0.868 13.248l21.504 51.916c3.17 7.654-0.464 16.428-8.118 19.598l-51.916 21.504c-4.346 1.8-7.538 5.438-8.754 9.982-1.218 4.544-0.274 9.29 2.59 13.022l34.208 44.582c2.422 3.156 3.49 7.146 2.972 11.090-0.52 3.944-2.584 7.52-5.74 9.942l-44.582 34.208c-3.732 2.864-5.872 7.204-5.872 11.908s2.14 9.044 5.874 11.908l44.582 34.208c3.156 2.422 5.22 5.998 5.74 9.942 0.518 3.944-0.55 7.934-2.972 11.090l-34.208 44.582c-2.864 3.732-3.808 8.478-2.59 13.022 1.216 4.544 4.408 8.182 8.754 9.982l51.916 21.504c3.676 1.522 6.596 4.442 8.118 8.118s1.522 7.804 0 11.48l-21.504 51.916c-1.8 4.346-1.484 9.174 0.868 13.25 2.352 4.074 6.376 6.762 11.040 7.376l55.712 7.334c8.212 1.082 13.996 8.616 12.914 16.83l-7.334 55.712c-0.614 4.664 0.94 9.246 4.266 12.572s7.912 4.878 12.572 4.268l55.712-7.334c8.23-1.074 15.75 4.702 16.83 12.914l7.334 55.712c0.614 4.664 3.302 8.686 7.376 11.040 4.078 2.352 8.904 2.666 13.25 0.868l51.916-21.504c7.654-3.168 16.428 0.464 19.598 8.118l21.504 51.916c1.8 4.346 5.438 7.538 9.982 8.754 4.548 1.218 9.292 0.272 13.022-2.59l44.58-34.208c6.572-5.042 15.99-3.802 21.032 2.768l34.208 44.582c2.864 3.73 7.204 5.87 11.908 5.87s9.046-2.14 11.91-5.872l34.208-44.582c2.422-3.156 5.998-5.222 9.944-5.742 3.936-0.516 7.932 0.55 11.088 2.972l44.582 34.208c3.73 2.864 8.472 3.806 13.022 2.59 4.544-1.218 8.184-4.41 9.984-8.754l21.504-51.916c3.17-7.652 11.942-11.288 19.598-8.118l51.916 21.504c4.346 1.8 9.178 1.484 13.248-0.868 4.074-2.352 6.762-6.376 7.376-11.040l7.334-55.712c1.078-8.212 8.612-13.992 16.828-12.914l55.714 7.334c4.652 0.62 9.244-0.94 12.572-4.268 3.326-3.326 4.88-7.908 4.268-12.572l-7.334-55.714c-1.082-8.214 4.7-15.75 12.914-16.83l55.71-7.334c4.664-0.614 8.688-3.302 11.040-7.376s2.668-8.904 0.87-13.25l-21.504-51.916c-3.17-7.654 0.462-16.428 8.118-19.598l51.916-21.504c4.346-1.8 7.538-5.438 8.754-9.982 1.218-4.544 0.274-9.29-2.59-13.022l-34.208-44.582c-2.422-3.156-3.49-7.146-2.97-11.090s2.584-7.52 5.74-9.942l44.582-34.208c3.726-2.858 5.866-7.198 5.866-11.902s-2.14-9.044-5.872-11.908zM522.608 416.18c-5.86 5.858-15.356 5.856-21.214 0l-176.070-176.070c-5.848-5.848-15.364-5.848-21.214 0-5.848 5.848-5.848 15.366 0 21.214l394.568 394.566c2.832 2.834 6.598 4.394 10.606 4.394 4.006 0 7.774-1.56 10.606-4.394 5.85-5.848 5.85-15.366 0-21.214l-176.070-176.070c-5.858-5.858-5.858-15.356 0-21.212 5.86-5.858 15.356-5.858 21.214 0l176.070 176.070c17.542 17.546 17.542 46.094-0.002 63.64-8.5 8.5-19.798 13.18-31.818 13.18-12.022 0-23.32-4.682-31.82-13.18l-394.566-394.566c-17.546-17.544-17.546-46.094 0-63.64 8.772-8.774 20.296-13.16 31.82-13.16s23.046 4.386 31.82 13.16l176.070 176.070c5.856 5.856 5.856 15.354 0 21.212zM660.492 434.508c-74.44 0-135-60.56-135-135s60.56-135 135-135 135 60.56 135 135-60.56 135-135 135zM660.492 194.508c-57.896 0-105 47.102-105 105s47.104 105 105 105 105-47.102 105-105-47.104-105-105-105zM660.492 374.508c-41.356 0-75-33.644-75-75s33.644-75 75-75 75 33.644 75 75-33.644 75-75 75zM660.492 254.508c-24.812 0-45 20.186-45 45s20.188 45 45 45 45-20.186 45-45-20.188-45-45-45zM498.508 596.492c0 74.44-60.56 135-135 135s-135-60.56-135-135 60.56-135 135-135 135 60.56 135 135zM258.508 596.492c0 57.898 47.102 105 105 105s105-47.102 105-105-47.102-105-105-105-105 47.102-105 105zM438.508 596.492c0 41.356-33.644 75-75 75s-75-33.644-75-75 33.644-75 75-75 75 33.644 75 75zM318.508 596.492c0 24.814 20.186 45 45 45s45-20.186 45-45-20.186-45-45-45-45 20.186-45 45z" />
<glyph unicode="&#xe928;" glyph-name="external-link" d="M725.333 384v-256c0-11.776-4.736-22.4-12.501-30.165s-18.389-12.501-30.165-12.501h-469.333c-11.776 0-22.4 4.736-30.165 12.501s-12.501 18.389-12.501 30.165v469.333c0 11.776 4.736 22.4 12.501 30.165s18.389 12.501 30.165 12.501h256c23.552 0 42.667 19.115 42.667 42.667s-19.115 42.667-42.667 42.667h-256c-35.328 0-67.413-14.379-90.496-37.504s-37.504-55.168-37.504-90.496v-469.333c0-35.328 14.379-67.413 37.504-90.496s55.168-37.504 90.496-37.504h469.333c35.328 0 67.413 14.379 90.496 37.504s37.504 55.168 37.504 90.496v256c0 23.552-19.115 42.667-42.667 42.667s-42.667-19.115-42.667-42.667zM456.832 311.168l396.501 396.501v-153.003c0-23.552 19.115-42.667 42.667-42.667s42.667 19.115 42.667 42.667v256c0 5.803-1.152 11.307-3.243 16.341s-5.163 9.728-9.216 13.781c-0.043 0.043-0.043 0.043-0.085 0.085-3.925 3.925-8.619 7.083-13.781 9.216-5.035 2.091-10.539 3.243-16.341 3.243h-256c-23.552 0-42.667-19.115-42.667-42.667s19.115-42.667 42.667-42.667h153.003l-396.501-396.501c-16.683-16.683-16.683-43.691 0-60.331s43.691-16.683 60.331 0z" />
<glyph unicode="&#xe929;" glyph-name="bookmark-o" horiz-adv-x="731" d="M658.286 804.571h-585.143v-709.714l292.571 280.571 50.857-48.571 241.714-232v709.714zM665.143 877.714c8.571 0 17.143-1.714 25.143-5.143 25.143-9.714 41.143-33.143 41.143-58.857v-736.571c0-25.714-16-49.143-41.143-58.857-8-3.429-16.571-4.571-25.143-4.571-17.714 0-34.286 6.286-47.429 18.286l-252 242.286-252-242.286c-13.143-12-29.714-18.857-47.429-18.857-8.571 0-17.143 1.714-25.143 5.143-25.143 9.714-41.143 33.143-41.143 58.857v736.571c0 25.714 16 49.143 41.143 58.857 8 3.429 16.571 5.143 25.143 5.143h598.857z" />
<glyph unicode="&#xe92a;" glyph-name="bookmark1" horiz-adv-x="731" d="M665.143 877.714c8.571 0 17.143-1.714 25.143-5.143 25.143-9.714 41.143-33.143 41.143-58.857v-736.571c0-25.714-16-49.143-41.143-58.857-8-3.429-16.571-4.571-25.143-4.571-17.714 0-34.286 6.286-47.429 18.286l-252 242.286-252-242.286c-13.143-12-29.714-18.857-47.429-18.857-8.571 0-17.143 1.714-25.143 5.143-25.143 9.714-41.143 33.143-41.143 58.857v736.571c0 25.714 16 49.143 41.143 58.857 8 3.429 16.571 5.143 25.143 5.143h598.857z" />
<glyph unicode="&#xe92b;" glyph-name="chevron-right" d="M469.146 741.581c21.402-20.89 230.502-240.384 230.502-240.384 11.418-11.213 17.152-25.805 17.152-40.397s-5.734-29.184-17.152-40.294c0 0-209.101-219.597-230.502-240.384-21.402-20.89-59.904-22.323-82.688 0-22.835 22.221-24.627 53.299 0 80.589l191.846 200.090-191.846 200.090c-24.627 27.29-22.835 58.419 0 80.691 22.784 22.323 61.286 20.941 82.688 0z" />
<glyph unicode="&#xe92c;" glyph-name="chevron-left1" d="M637.542 741.581c22.835-22.323 24.627-53.402 0-80.691l-191.846-200.090 191.846-200.090c24.627-27.29 22.835-58.419 0-80.589-22.784-22.323-61.286-20.89-82.688 0-21.402 20.787-230.502 240.384-230.502 240.384-11.418 11.11-17.152 25.702-17.152 40.294s5.734 29.184 17.152 40.397c0 0 209.101 219.494 230.502 240.384 21.402 20.941 59.904 22.323 82.688 0z" />
<glyph unicode="&#xe92d;" glyph-name="heart1" d="M859.008 711.808c37.547-37.589 56.277-86.656 56.277-135.851s-18.773-98.261-56.277-135.765l-347.008-347.008-347.008 347.008c-37.504 37.504-56.235 86.571-56.235 135.808s18.731 98.304 56.235 135.808 86.571 56.235 135.808 56.235 98.304-18.731 135.808-56.235l45.227-45.227c16.683-16.683 43.691-16.683 60.331 0l45.312 45.312c37.504 37.504 86.571 56.235 135.765 56.192s98.261-18.773 135.765-56.277zM919.339 772.139c-54.144 54.144-125.184 81.237-196.096 81.28s-141.952-27.051-196.139-81.195l-15.104-15.147-15.061 15.061c-54.144 54.144-125.227 81.237-196.139 81.237s-141.995-27.093-196.139-81.237-81.237-125.227-81.237-196.139 27.093-141.995 81.237-196.139l377.173-377.173c16.683-16.683 43.691-16.683 60.331 0l377.173 377.173c54.144 54.144 81.237 125.184 81.28 196.096s-27.051 141.952-81.28 196.181z" />
<glyph unicode="&#xe92e;" glyph-name="cart-plus" horiz-adv-x="951" d="M694.857 548.571c0 20-16.571 36.571-36.571 36.571h-73.143v73.143c0 20-16.571 36.571-36.571 36.571s-36.571-16.571-36.571-36.571v-73.143h-73.143c-20 0-36.571-16.571-36.571-36.571s16.571-36.571 36.571-36.571h73.143v-73.143c0-20 16.571-36.571 36.571-36.571s36.571 16.571 36.571 36.571v73.143h73.143c20 0 36.571 16.571 36.571 36.571zM365.714 73.143c0-40.571-32.571-73.143-73.143-73.143s-73.143 32.571-73.143 73.143 32.571 73.143 73.143 73.143 73.143-32.571 73.143-73.143zM877.714 73.143c0-40.571-32.571-73.143-73.143-73.143s-73.143 32.571-73.143 73.143 32.571 73.143 73.143 73.143 73.143-32.571 73.143-73.143zM950.857 694.857v-292.571c0-18.286-13.714-34.286-32.571-36.571l-596.571-69.714c2.286-12.571 7.429-26.857 7.429-40s-8-25.143-13.714-36.571h525.714c20 0 36.571-16.571 36.571-36.571s-16.571-36.571-36.571-36.571h-585.143c-20 0-36.571 16.571-36.571 36.571 0 17.714 26.857 61.714 34.857 78.286l-101.143 470.286h-116.571c-20 0-36.571 16.571-36.571 36.571s16.571 36.571 36.571 36.571h146.286c38.857 0 39.429-45.714 45.143-73.143h686.286c20 0 36.571-16.571 36.571-36.571z" />
<glyph unicode="&#xe93a;" glyph-name="cart" d="M384 32c0-53.019-42.981-96-96-96s-96 42.981-96 96c0 53.019 42.981 96 96 96s96-42.981 96-96zM1024 32c0-53.019-42.981-96-96-96s-96 42.981-96 96c0 53.019 42.981 96 96 96s96-42.981 96-96zM1024 448v384h-768c0 35.346-28.654 64-64 64h-192v-64h128l48.074-412.054c-29.294-23.458-48.074-59.5-48.074-99.946 0-70.696 57.308-128 128-128h768v64h-768c-35.346 0-64 28.654-64 64 0 0.218 0.014 0.436 0.016 0.656l831.984 127.344z" />
<glyph unicode="&#xe97a;" glyph-name="spinner" d="M384 832c0 70.692 57.308 128 128 128s128-57.308 128-128c0-70.692-57.308-128-128-128s-128 57.308-128 128zM655.53 719.53c0 70.692 57.308 128 128 128s128-57.308 128-128c0-70.692-57.308-128-128-128s-128 57.308-128 128zM832 448c0 35.346 28.654 64 64 64s64-28.654 64-64c0-35.346-28.654-64-64-64s-64 28.654-64 64zM719.53 176.47c0 35.346 28.654 64 64 64s64-28.654 64-64c0-35.346-28.654-64-64-64s-64 28.654-64 64zM448.002 64c0 0 0 0 0 0 0 35.346 28.654 64 64 64s64-28.654 64-64c0 0 0 0 0 0 0-35.346-28.654-64-64-64s-64 28.654-64 64zM176.472 176.47c0 0 0 0 0 0 0 35.346 28.654 64 64 64s64-28.654 64-64c0 0 0 0 0 0 0-35.346-28.654-64-64-64s-64 28.654-64 64zM144.472 719.53c0 0 0 0 0 0 0 53.019 42.981 96 96 96s96-42.981 96-96c0 0 0 0 0 0 0-53.019-42.981-96-96-96s-96 42.981-96 96zM56 448c0 39.765 32.235 72 72 72s72-32.235 72-72c0-39.765-32.235-72-72-72s-72 32.235-72 72z" />
<glyph unicode="&#xe97b;" glyph-name="spinner2" d="M1024 448c-1.278 66.862-15.784 133.516-42.576 194.462-26.704 61-65.462 116.258-113.042 161.92-47.552 45.696-103.944 81.82-164.984 105.652-61.004 23.924-126.596 35.352-191.398 33.966-64.81-1.282-129.332-15.374-188.334-41.356-59.048-25.896-112.542-63.47-156.734-109.576-44.224-46.082-79.16-100.708-102.186-159.798-23.114-59.062-34.128-122.52-32.746-185.27 1.286-62.76 14.964-125.148 40.134-182.206 25.088-57.1 61.476-108.828 106.11-151.548 44.61-42.754 97.472-76.504 154.614-98.72 57.118-22.304 118.446-32.902 179.142-31.526 60.708 1.29 120.962 14.554 176.076 38.914 55.15 24.282 105.116 59.48 146.366 102.644 41.282 43.14 73.844 94.236 95.254 149.43 13.034 33.458 21.88 68.4 26.542 103.798 1.246-0.072 2.498-0.12 3.762-0.12 35.346 0 64 28.652 64 64 0 1.796-0.094 3.572-0.238 5.332h0.238zM922.306 278.052c-23.472-53.202-57.484-101.4-99.178-141.18-41.67-39.81-91-71.186-144.244-91.79-53.228-20.678-110.29-30.452-166.884-29.082-56.604 1.298-112.596 13.736-163.82 36.474-51.25 22.666-97.684 55.49-135.994 95.712-38.338 40.198-68.528 87.764-88.322 139.058-19.87 51.284-29.228 106.214-27.864 160.756 1.302 54.552 13.328 108.412 35.254 157.69 21.858 49.3 53.498 93.97 92.246 130.81 38.73 36.868 84.53 65.87 133.874 84.856 49.338 19.060 102.136 28.006 154.626 26.644 52.5-1.306 104.228-12.918 151.562-34.034 47.352-21.050 90.256-51.502 125.624-88.782 35.396-37.258 63.21-81.294 81.39-128.688 18.248-47.392 26.782-98.058 25.424-148.496h0.238c-0.144-1.76-0.238-3.536-0.238-5.332 0-33.012 24.992-60.174 57.086-63.624-6.224-34.822-16.53-68.818-30.78-100.992z" />
<glyph unicode="&#xe97d;" glyph-name="spinner4" d="M192 448c0 12.18 0.704 24.196 2.030 36.022l-184.98 60.104c-5.916-31.14-9.050-63.264-9.050-96.126 0-147.23 62.166-279.922 161.654-373.324l114.284 157.296c-52.124 56.926-83.938 132.758-83.938 216.028zM832 448c0-83.268-31.812-159.102-83.938-216.028l114.284-157.296c99.488 93.402 161.654 226.094 161.654 373.324 0 32.862-3.132 64.986-9.048 96.126l-184.98-60.104c1.324-11.828 2.028-23.842 2.028-36.022zM576 761.592c91.934-18.662 169.544-76.742 214.45-155.826l184.978 60.102c-73.196 155.42-222.24 268.060-399.428 290.156v-194.432zM233.55 605.768c44.906 79.084 122.516 137.164 214.45 155.826v194.43c-177.188-22.096-326.23-134.736-399.426-290.154l184.976-60.102zM644.556 156.672c-40.39-18.408-85.272-28.672-132.556-28.672s-92.166 10.264-132.554 28.67l-114.292-157.31c73.206-40.366 157.336-63.36 246.846-63.36s173.64 22.994 246.848 63.36l-114.292 157.312z" />
<glyph unicode="&#xe981;" glyph-name="spinner8" d="M512-64c-136.76 0-265.334 53.258-362.040 149.96-96.702 96.706-149.96 225.28-149.96 362.040 0 96.838 27.182 191.134 78.606 272.692 50 79.296 120.664 143.372 204.356 185.3l43-85.832c-68.038-34.084-125.492-86.186-166.15-150.67-41.746-66.208-63.812-142.798-63.812-221.49 0-229.382 186.618-416 416-416s416 186.618 416 416c0 78.692-22.066 155.282-63.81 221.49-40.66 64.484-98.114 116.584-166.15 150.67l43 85.832c83.692-41.928 154.358-106.004 204.356-185.3 51.422-81.558 78.604-175.854 78.604-272.692 0-136.76-53.258-265.334-149.96-362.040-96.706-96.702-225.28-149.96-362.040-149.96z" />
<glyph unicode="&#xe984;" glyph-name="spinner11" d="M1024 576h-384l143.53 143.53c-72.53 72.526-168.96 112.47-271.53 112.47s-199-39.944-271.53-112.47c-72.526-72.53-112.47-168.96-112.47-271.53s39.944-199 112.47-271.53c72.53-72.526 168.96-112.47 271.53-112.47s199 39.944 271.528 112.472c6.056 6.054 11.86 12.292 17.456 18.668l96.32-84.282c-93.846-107.166-231.664-174.858-385.304-174.858-282.77 0-512 229.23-512 512s229.23 512 512 512c141.386 0 269.368-57.326 362.016-149.984l149.984 149.984v-384z" />
<glyph unicode="&#xe9ad;" glyph-name="trash2" d="M192-64h640l64 704h-768zM640 832v128h-256v-128h-320v-192l64 64h768l64-64v192h-320zM576 832h-128v64h128v-64z" />
<glyph unicode="&#xe9c2;" glyph-name="cloud-download" d="M891.004 599.94c-3.242 128.698-108.458 232.060-237.862 232.060-75.792 0-143.266-35.494-186.854-90.732-24.442 31.598-62.69 51.96-105.708 51.96-73.81 0-133.642-59.876-133.642-133.722 0-6.436 0.48-12.76 1.364-18.954-11.222 2.024-22.766 3.138-34.57 3.138-106.998 0.002-193.732-86.786-193.732-193.842 0-107.062 86.734-193.848 193.73-193.848h91.76l226.51-234.51 226.51 234.51 111.482 0.012c96.138 0.184 174.008 78.21 174.008 174.446 0 82.090-56.678 150.9-132.996 169.482zM512 128l-192 192h128v192h128v-192h128l-192-192z" />
<glyph unicode="&#xe9c7;" glyph-name="download3" d="M736 512l-256-256-256 256h160v384h192v-384zM480 256h-480v-256h960v256h-480zM896 128h-128v64h128v-64z" />
<glyph unicode="&#xe9da;" glyph-name="heart" d="M755.188 896c-107.63 0-200.258-87.554-243.164-179-42.938 91.444-135.578 179-243.216 179-148.382 0-268.808-120.44-268.808-268.832 0-301.846 304.5-380.994 512.022-679.418 196.154 296.576 511.978 387.206 511.978 679.418 0 148.392-120.43 268.832-268.812 268.832z" />
<glyph unicode="&#xea10;" glyph-name="checkmark" d="M864 832l-480-480-224 224-160-160 384-384 640 640z" />
</font>
</defs>
</svg>
